Tags
Language
Tags

Steve Earle - Transcendental Blues (2000) [Official Digital Download 24bit/192kHz]

Posted By: HDV
Steve Earle - Transcendental Blues (2000) [Official Digital Download 24bit/192kHz]

Steve Earle - Transcendental Blues (2000)
FLAC (tracks) 24 bit/192 kHz | Time - 49:23 minutes | 1,88 MB
FLAC (tracks) 24 bit/96 kHz | Time - 49:23 minutes | 1,12 MB
Studio Master, Official Digital Download | Artwork: Digital Booklet

One of the most versatile and captivating albums from singer-songwriter, Steve Earle, "Transcendental Blues" is a well-crafted and lyrically stunning release delving into the personal evolution of Steve Earle. Earle’s innovative songwriting marries blues, bluegrass, country, country rock and even Celtic music. The album debuted at #5 on the Billboard’s Top Country Album Charts and was a Grammy nominated album for “Best Contemporary Folk Album”.

Steve Earle is a rebel. Not in the Hollywood/James Dean/Easy Rider/rebel-against-society sense, but rather in a real and personal way. Throughout his life and career he has rebelled against the very industry that surrounded him and did not find the freedom he sought until he started his own label, E-Squared. He rebelled against his common sense and his health in search of true American artistry and did not find the freedom he sought until he hit the bottom of addiction, and he continues to rebel against mainstream American culture and politics with his attitudes and songs; Transcendental Blues is no exception. Transcendental Blues walks the line between Steve Earle the country-rock rebel who gave the world Copperhead Road and Guitar Town and Steve Earle the traditionalist who opened a new chapter in bluegrass with his last release, The Mountain. This album rocks with songs like "Everyone's in Love with You" and "All My Life." It soothes with "The Boy Who Never Cried" and "Lonelier Than This," and it two-steps with new country like "The Galway Girl" and "Until the Day I Die." Fans of alternative country music sing the praises of artists like Charlie Robison, Jack Ingram, and Robert Earl Keen, Jr., but Earle proves again and again that he is the original alternative to the glossy side of Nashville. Earle cut the path that all his followers thankfully hike along, avoiding the weeds and branches that made him what he is today.

Tracklist:

01 - Transcendental Blues
02 - Everyone's In Love With You
03 - Another Town
04 - I Can Wait
05 - The Boy Who Never Cried
06 - Steve's Last Ramble
07 - The Galway Girl
08 - Lonelier Than This
09 - Wherever I Go
10 - When I Fall
11 - I Don't Want to Lose You Yet
12 - Halo 'Round the Moon
13 - Until the Day I Die
14 - All of My Life
15 - Over Yonder (Jonathan's Song)

Analyzed: Steve Earle / Transcendental Blues
––––––––––––––––––––––––––––––––––––––––

DR Peak RMS Duration Track
––––––––––––––––––––––––––––––––––––––––
DR11 -0.41 dB -12.47 dB 3:28 01-Transcendental Blues
DR11 -0.34 dB -13.00 dB 4:15 02-Everyone's In Love With You
DR11 -0.41 dB -13.09 dB 3:14 03-Another Town
DR11 -0.26 dB -12.06 dB 3:19 04-I Can Wait
DR12 -0.36 dB -14.37 dB 3:41 05-The Boy Who Never Cried
DR11 -0.31 dB -13.11 dB 2:18 06-Steve's Last Ramble
DR12 -0.54 dB -13.73 dB 3:34 07-The Galway Girl
DR13 -0.33 dB -14.07 dB 3:03 08-Lonelier Than This
DR11 -2.13 dB -15.66 dB 3:12 09-Wherever I Go
DR12 -0.40 dB -13.33 dB 1:57 10-When I Fall
DR11 -1.59 dB -14.23 dB 2:11 11-I Don't Want to Lose You Yet
DR11 -0.40 dB -15.39 dB 3:51 12-Halo 'Round the Moon
DR10 -0.27 dB -11.86 dB 3:21 13-Until the Day I Die
DR10 -0.33 dB -12.05 dB 3:25 14-All of My Life
DR11 -0.24 dB -12.61 dB 4:32 15-Over Yonder (Jonathan's Song)
––––––––––––––––––––––––––––––––––––––––

Number of tracks: 15
Official DR value: DR11

Samplerate: 192000 Hz
Channels: 2
Bits per sample: 24
Bitrate: 5265 kbps
Codec: FLAC
================================================================================


Thanks to the Original customer!