Quartet Equinox - Philip's Wish (2009) MCH SACD ISO + Hi-Res FLAC

Posted By: HDAtall
Quartet Equinox - Philip's Wish (2009) MCH SACD ISO + Hi-Res FLAC

Quartet Equinox - Philip's Wish (2009)
PS3 Rip | SACD ISO | DST64 2.0 & 5.0 > 1-bit/2.8224 MHz | 43:04 minutes | Scans included | 2,7 GB
or FLAC 2.0 Stereo (converted with foobar2000 to tracks) 24bit/88,2 kHz | Scans included | 884 MB
Features Stereo and Multichannel surround sound / Truly recorded in DSD

Philip's Wish is a very unique SACD featuring a mixture Flamenco grooves , Jazz improvisation and Brazilian and World music feel.

Debut release of Quartet Equinox - Flamenco Jazz is featuring all original compositions by Dirk K. A great variety of compositions featuring a very unique symbiosis of all acoustic instruments. The style of music is categorized as Flamenco and Jazz, simply because it uses original flamenco rhythms such as the Buleria, Rumba and Solea Por Buleria and many more and mixes them with Swing elements and Jazz chords, utilizing the cool vibe of Jazz, but keeping the excitement of Flamenco. So this is not traditional music, this is a new fusion of styles, keeping an all acoustic feel.

Tracklist:

01. The Antagonist
02. Toba Theory
03. Fahrvergnuegen
04. Rapid Waters
05. Esther's Song
06. Philip's Wish
07. Calico Cat
08. The Traveler

Personnel
Dirk K - flamenco guitar
Andy Suzuki - sax, flute, bass clarinet
Dean Taba - bass
Cristiano Novelli - percussion

Produced, Recorded and Mixed by Dirk K.
Recorded live January 14 & 15 of 2009 at media HYPERIUM, Torrance, CA.
Pure DSD Recording.

foobar2000 1.5.2 / Dynamic Range Meter 1.1.1

––––––––––––––––––––––––––––––––––––––––
Analyzed: Quartet Equinox / Philip's Wish
––––––––––––––––––––––––––––––––––––––––

DR Peak RMS Duration Track
––––––––––––––––––––––––––––––––––––––––
DR16 -8.46 dB -28.10 dB 7:47 01-The Antagonist
DR17 -6.69 dB -27.56 dB 3:52 02-Toba Theory
DR18 -6.51 dB -26.72 dB 6:41 03-Fahrvergnuegen
DR16 -6.80 dB -27.10 dB 4:24 04-Rapid Waters
DR17 -6.88 dB -27.49 dB 5:06 05-Esther's Song
DR17 -6.73 dB -28.63 dB 6:34 06-Philip's Wish
DR14 -7.33 dB -27.02 dB 3:27 07-Calico Cat
DR15 -6.87 dB -26.20 dB 5:12 08-The Traveler
––––––––––––––––––––––––––––––––––––––––

Number of tracks: 8
Official DR value: DR16

Samplerate: 2822400 Hz / PCM Samplerate: 88200 Hz
Channels: 5
Bits per sample: 24
Bitrate: 14112 kbps
Codec: DST64
================================================================================

––––––––––––––––––––––––––––––––––––––––
Analyzed: Quartet Equinox / Philip's Wish
––––––––––––––––––––––––––––––––––––––––

DR Peak RMS Duration Track
––––––––––––––––––––––––––––––––––––––––
DR14 -7.19 dB -23.22 dB 7:47 01-The Antagonist
DR13 -6.84 dB -22.32 dB 3:52 02-Toba Theory
DR14 -6.52 dB -22.68 dB 6:41 03-Fahrvergnuegen
DR13 -6.83 dB -21.45 dB 4:24 04-Rapid Waters
DR13 -6.67 dB -22.62 dB 5:06 05-Esther's Song
DR12 -6.68 dB -21.41 dB 6:34 06-Philip's Wish
DR13 -6.98 dB -22.24 dB 3:27 07-Calico Cat
DR11 -6.68 dB -20.46 dB 5:12 08-The Traveler
––––––––––––––––––––––––––––––––––––––––

Number of tracks: 8
Official DR value: DR13

Samplerate: 2822400 Hz / PCM Samplerate: 88200 Hz
Channels: 2
Bits per sample: 24
Bitrate: 5645 kbps
Codec: DST64


Thanks to grillbrill!
Uncompressed SACD ISO size > 2,56 GB
>