Philip Bailey - Soul On Jazz (2002) MCH SACD ISO + Hi-Res FLAC

Posted By: HDAtall
Philip Bailey - Soul On Jazz (2002) MCH SACD ISO + Hi-Res FLAC

Philip Bailey - Soul On Jazz (2002)
SACD Rip | SACD ISO | DST64 2.0 & 5.1 > 1-bit/2.8224 MHz | 50:53 minutes | Scans included | 3,54 GB
or FLAC 2.0 Stereo (converted with foobar2000 to tracks) 24bit/96 kHz | Scans included | 1,21 GB
Features Stereo and Multichannel Surround Sound

Vocalist Philip Bailey's high-flying falsetto made Earth, Wind & Fire an immortal supergroup. On this album, he's backed by a streamlined combo featuring saxophonist Bob Belden, keyboardists Scott Kinsey and Myron McKinley, and remixer DJ Smash. Nine of the 11 tracks are updated classic jazz, pop, and R&B/fusion-tinged tunes, from Nat "King" Cole's "Nature Boy" to Freddie Hubbard's "On the Red Clay". Thelonious Monk's "Ruby My Dear" is revived as a quiet-storm ballad, "Dear Ruby". "My Indiscretions", Bailey's take on the funky, futuristic Weather Report jam, "Indiscretions", features catchy lyrics by the singer's son, Sir Bailey. Chick Corea's "Sometime Ago" is turned into a club-friendly dance number, while Herbie Hancock's "Tell Me a Bedtime Story" is retouched with Afro-Latin tinges. The church-inspired EW&F hit, "Keep Your Head to the Sky", is rendered with hip-hop-styled rim shots. Philip Bailey's vocalisms show that Soul on Jazz does mix.

There was a strong jazz vibe running through some of Philip Bailey's sides with Earth, Wind & Fire. On Soul on Jazz, his second release for Heads Up International, co-producer Bailey remakes several jazz standards, some with new lyrics by his son, Sir Bailey. The foray is most successful on Thelonious Monk's "Ruby My Dear," a percussive take on Gene McDaniels' "Compared to What," and Joe Zawinul's "Mercy, Mercy, Mercy." R&B and jazz stylishly intersect on the smooth airy ballad "Unrestrained." Bailey redoes the EWF classic "Keep Your Head to the Sky," giving it a mellow sheen that's close to one of his past cuts, "Children of the Ghetto." On that and his dusky cover of Herbie Hancock's "Tell Me a Bedtime Story" and the loopy "Bop-Skip-Doodle," Bailey flexes his legendary falsetto. More jazz-oriented than Dreams, Soul on Jazz benefits from the sharing of production chores with Myron McKinley, Bob Belden, and Scott Kinsey. The album is definitely on track.

Tracklist:

01. My Indisrections
02. Dear Ruby
03. Compared To What
04. Nature Boy
05. Bop-Skip-Doodle
06. Unrestrained
07. Mercy, Mercy, Mercy
08. Keep Your Head To The Sky
09. Sometime Ago
10. Tell Me A Bedtime Story
11. On The Red Clay

foobar2000 1.5.4 / Dynamic Range Meter 1.1.1

––––––––––––––––––––––––––––––––––––––––
Analyzed: Philip Bailey / Soul on Jazz
––––––––––––––––––––––––––––––––––––––––

DR Peak RMS Duration Track
––––––––––––––––––––––––––––––––––––––––
DR13 -1.58 dB -19.64 dB 4:23 01-My Indisrections
DR13 0.00 dB -21.42 dB 4:41 02-Dear Ruby
DR14 -0.92 dB -20.48 dB 4:58 03-Compared To What
DR13 -1.89 dB -19.67 dB 4:55 04-Nature Boy
DR13 -1.49 dB -18.23 dB 4:23 05-Bop-Skip-Doodle
DR13 -0.82 dB -20.78 dB 3:47 06-Unrestrained
DR14 -0.10 dB -18.94 dB 4:50 07-Mercy, Mercy, Mercy
DR14 0.00 dB -21.44 dB 4:55 08-Keep Your Head To The Sky
DR13 -1.34 dB -18.92 dB 3:46 09-Sometime Ago
DR14 -2.85 dB -23.08 dB 5:13 10-Tell Me A Bedtime Story
DR14 -1.60 dB -19.85 dB 4:58 11-On The Red Clay
––––––––––––––––––––––––––––––––––––––––

Number of tracks: 11
Official DR value: DR13

Samplerate: 2822400 Hz / PCM Samplerate: 176400 Hz
Channels: 6
Bits per sample: 1
Bitrate: 16934 kbps
Codec: DST64
================================================================================

––––––––––––––––––––––––––––––––––––––––
Analyzed: Philip Bailey / Soul on Jazz
––––––––––––––––––––––––––––––––––––––––

DR Peak RMS Duration Track
––––––––––––––––––––––––––––––––––––––––
DR8 -5.67 dB -14.92 dB 4:23 01-My Indisrections
DR8 -5.72 dB -17.37 dB 4:42 02-Dear Ruby
DR8 -5.59 dB -15.13 dB 4:58 03-Compared To What
DR7 -5.69 dB -15.22 dB 4:56 04-Nature Boy
DR8 -5.68 dB -14.63 dB 4:24 05-Bop-Skip-Doodle
DR9 -5.70 dB -15.83 dB 3:47 06-Unrestrained
DR8 -5.69 dB -14.67 dB 4:51 07-Mercy, Mercy, Mercy
DR9 -5.69 dB -16.26 dB 4:55 08-Keep Your Head To The Sky
DR8 -5.65 dB -14.82 dB 3:47 09-Sometime Ago
DR9 -5.71 dB -17.06 dB 5:13 10-Tell Me A Bedtime Story
DR8 -5.66 dB -15.02 dB 4:59 11-On The Red Clay
––––––––––––––––––––––––––––––––––––––––

Number of tracks: 11
Official DR value: DR8

Samplerate: 2822400 Hz / PCM Samplerate: 176400 Hz
Channels: 2
Bits per sample: 1
Bitrate: 5645 kbps
Codec: DST64


Thanks to grillbrill!
Uncompressed SACD ISO size > 3,36 GB
>