Neil Wolfe - Out Of This World: The Exciting Piano Of Neil Wolfe (1965/2015) [Official Digital Download 24-bit/96 kHz]

Posted By: HDV
Neil Wolfe - Out Of This World: The Exciting Piano Of Neil Wolfe (1965/2015) [Official Digital Download 24-bit/96 kHz]

Neil Wolfe - Out Of This World: The Exciting Piano Of Neil Wolfe (1965/2015)
FLAC (tracks) 24-bit/96 kHz | Time - 34:32 minutes | 759 MB
Studio Master, Official Digital Download | Artwork: Front cover

The old sideman's aphorism to the effect that "good jazz pianists don't in conservatories grow" has lost credence late under the assault a number of formally schooled progressivists. One of them was Neil Wolfe, an exceptionally talented pianist. Althought his credencials include composition and piano studies at the New England Conservatory, Wolfe is no recitalist. Somewhere between his boyhood piano lessons in Syracuse, NY, and the Baltimore bistro - where Columbia found him, Wolfe acquired the inexplicit but unmistikable sensibilities of Jazz. Given the genre's fabled intangibles, fully developed and disciplined keyboard skills and a bench full of ideas, Wolfe's statements are the kind of calibre of Art Tatum. He also evokes Tatum with, expectedly, his discernably classical keyboard learnings.

Tracklist:

01 - Once In a Lifetime
02 - Lazy Afternoon
03 - Matchmaker
04 - What Now My Love
05 - Gonna Build a Mountain
06 - A Quiet Thing
07 - The Joker
08 - My Romance
09 - Chim Chim Cher-ee
10 - A-Minor Invention
11 - Out of This World
12 - Barbra

Analyzed: Neil Wolfe / Out of This World: The Exciting Piano of Neil Wolfe
––––––––––––––––––––––––––––––––––––––––

DR Peak RMS Duration Track
––––––––––––––––––––––––––––––––––––––––
DR10 -0.71 dB -12.78 dB 1:52 01-Once In a Lifetime
DR10 -3.33 dB -19.31 dB 3:44 02-Lazy Afternoon
DR11 -2.10 dB -14.33 dB 2:08 03-Matchmaker
DR10 -0.78 dB -16.34 dB 2:59 04-What Now My Love
DR11 -0.72 dB -13.81 dB 2:57 05-Gonna Build a Mountain
DR11 -2.70 dB -16.84 dB 3:01 06-A Quiet Thing
DR12 -0.71 dB -15.19 dB 2:26 07-The Joker
DR11 -0.72 dB -14.56 dB 3:16 08-My Romance
DR11 -1.89 dB -17.29 dB 3:12 09-Chim Chim Cher-ee
DR10 -2.27 dB -16.52 dB 3:18 10-A-Minor Invention
DR10 -0.92 dB -14.10 dB 2:57 11-Out of This World
DR11 -4.00 dB -16.93 dB 2:43 12-Barbra
––––––––––––––––––––––––––––––––––––––––

Number of tracks: 12
Official DR value: DR11

Samplerate: 96000 Hz
Channels: 2
Bits per sample: 24
Bitrate: 3001 kbps
Codec: FLAC
================================================================================


Thanks to the Original customer!