My Fair Lady - Original Motion Picture Soundtrack (1964) [Reissue 2001] PS3 ISO + Hi-Res FLAC

Posted By: HDAtall
My Fair Lady - Original Motion Picture Soundtrack (1964) [Reissue 2001] PS3 ISO + Hi-Res FLAC

My Fair Lady - Original Motion Picture Soundtrack (1964) [Reissue 2001]
PS3 Rip | SACD ISO | DSD64 2.0 > 1-bit/2.8224 MHz | 74:32 minutes | Full Art (PDF) | 1,97 GB
or FLAC 2.0 (converted with foobar2000 to tracks) 24bit/48 kHz | Full Art (PDF) | 796 MB

One of the best Hollywood musicals ever, and one of the top selling LPs after its release back in l964, this seemed a natural for reissue in the new SACD format. As expected, the fidelity is not exactly audiophile-level, coming from a Hollywood soundstage, and especially of that vintage. However, there is no denying that the voices (can’t really say singers since Harrison hardly sings at all) come across with an impact and you-are thereness missing in the previous LP, cassette and CD versions. In addition to all the usual hits such as The Rain in Spain, I could Have Danced All Night, I’ve Grown Accustomed to Her Face, and Get Me to the Church on Time, there are three bonus tracks not included on the original. They are The Embassy Waltz, End Titles and Exit Music. Having seen and heard the extras on the DVD reissue of this movie, I was only sorry we couldn’t have the perfectly fine original vocals by Audrey Hepburn herself instead of her replacement ghost voice. – Reviews by John Sunier at Audiophile Audition

Tracklist:

01. Overture
02. Why Can't The English?
03. Wouldn't It Be Loverly
04. I'm An Ordinary Man
05. With A Little Bit Of Luck
06. Just You Wait
07. The Rain In Spain
08. I Could Have Danced All Night
09. Ascot Gavotte
10. On The Street Where You Live
11. The Embassy Waltz
12. You Did It
13. Show Me
14. Get Me To The Church On Time
15. A Hymn To Him
16. Without You
17. I've Grown Accustomed To Her Face/End Titles
18. Exit Music

Recorded in Hollywood, California, on April 14, 16-17, 1964.
Orchestrations by ALEXANDER COURAGE, ROBERT FRANKLYN and AL WOODBURY.
Vocal arrangements by ROBERT TUCKER.

foobar2000 1.4.1 / Dynamic Range Meter 1.1.1

––––––––––––––––––––––––––––––––––––––––
Analyzed: ? / ?
––––––––––––––––––––––––––––––––––––––––

DR Peak RMS Duration Track
––––––––––––––––––––––––––––––––––––––––
DR11 -5.85 dB -20.09 dB 3:25 01-Overture
DR13 -7.31 dB -22.91 dB 2:33 02-Why Can't The English?
DR11 -7.33 dB -22.75 dB 4:20 03-Wouldn't It Be Loverly
DR12 -6.74 dB -22.75 dB 4:32 04-I'm An Ordinary Man
DR13 -6.72 dB -22.75 dB 3:53 05-With A Little Bit Of Luck
DR11 -6.58 dB -21.29 dB 2:56 06-Just You Wait
DR13 -5.92 dB -22.35 dB 2:11 07-The Rain In Spain
DR11 -7.68 dB -22.13 dB 3:56 08-I Could Have Danced All Night
DR13 -7.94 dB -24.00 dB 3:07 09-Ascot Gavotte
DR10 -8.62 dB -23.43 dB 3:55 10-On The Street Where You Live
DR12 -7.42 dB -23.48 dB 2:06 11-The Embassy Waltz
DR12 -6.40 dB -21.75 dB 4:36 12-You Did It
DR10 -6.60 dB -21.79 dB 2:11 13-Show Me
DR12 -5.97 dB -21.20 dB 5:57 14-Get Me To The Church On Time
DR12 -6.20 dB -22.16 dB 3:34 15-A Hymn To Him
DR10 -7.34 dB -21.49 dB 2:30 16-Without You
DR12 -6.65 dB -23.90 dB 7:35 17-I've Grown Accustomed To Her Face/End Titles
DR11 -6.46 dB -20.53 dB 1:17 18-Exit Music
––––––––––––––––––––––––––––––––––––––––

Number of tracks: 18
Official DR value: DR12

Samplerate: 2822400 Hz / PCM Samplerate: 88200 Hz
Channels: 2
Bits per sample: 24
Bitrate: 5645 kbps
Codec: DSD64


Thanks to PhantomBlot!
Uncompressed SACD ISO size > 2,6 GB
>