Tags
Language
Tags

Lara Fabian - Le Secret (2013) [Official Digital Download]

Posted By: HDV
Lara Fabian - Le Secret (2013) [Official Digital Download]

Lara Fabian - Le Secret (2013)
FLAC (tracks) 24-bit/44,1 kHz | Time - 79:13 minutes | 870 MB
Studio Master, Official Digital Download | Artwork: Digital booklet

"Le Secret" is a 2013 album by Belgian-Italian-Canadian international singer Lara Fabian. The album was a big success selling a certified 18,768 copies in its first week of release and appearing at number 1 in SNEP, the official French Albums Chart.

Belgian-born pop singer/songwriter Lara Fabian began singing, dancing, and taking piano lessons at a very young age and began formal music lessons at the Royal Conservatory of Brussels at age eight. During her ten years of study there, Fabian started writing and performing her own songs, which were inspired as much by her classical vocal and music theory training as they were by Barbra Streisand and Queen. After finishing her studies, Fabian moved to Montreal and began her own label and publishing company, Productions Clandestines. Collaborator/producer Rick Allison, an old friend from Brussels, joined her in Montreal and the pair worked steadily on writing and recording songs. In 1991, Fabian's French-language debut album was released in Canada and sold over 100,000 copies in three years. Her consistent touring in Quebec helped bolster her 1994 album Carpe Diem to similar success, which paved the way for 1997's Pure, a two million-selling album in France that spawned the anti-homophobia anthem "La Difference." The live album Fabian released a year later solidified the international buzz around her and she was signed by Sony Music, which released her self-titled, English-language album in 2000. It was a huge success across the globe, reaching number 1 in the US Heatseeker chart and rocketed to the top of the French charts. A Year later she returned to French language for her fifth album, Nue, which documented her tumultuous time during the overwhelming success of her previous album. In 2004 Fabian released her second English record, A Wonderful Life. The album featured a collection of acoustic-pop songs and included “Review My Kisses” – a track Fabian originally turned down the track for the album. However, after being impressed by LeAnn Rimes' version, she recorded the song herself. Just a year later, Fabian released 9, which for the first time was not produced by long term collaborator Rick Allison. Instead, Jean-Félix Lalanne took the helm, and brought about a distinct change in Fabian’s pop sound and marked her fifth French studio album. The highly anticipated collaboration with pianist Mark Herskowitz, Toutes Les Femmes En Moi, arrived in 2009 and brought together a collection of songs from an array of artists such as Celine Dion and Edith Piaf. 2010 saw the release of the compilation Best of Laura Fabian, which included the hit single "I Will Love Again" and her duet with Johnny Hallyday "Requiem Pour un Fou".

Tracklist:

01 - Le Secret
02 - Danse
03 - Amourexique
04 - Un Ange Est Tombé
05 - Je T'Appelle
06 - Mirage
07 - Que j'Etais Belle
08 - La Vie Est Là
09 - Je Rêve D'Une Etoile
10 - Kalpataru
11 - Deux "Ils" Deux "Elles"
12 - Ce Qu'Il Reste…
13 - P… De Grand Amour
14 - Il Est Lune
15 - Mon Désir
16 - L'Enfant Du Gwenved
17 - I Am A-WA

Analyzed: Lara Fabian / Le Secret
––––––––––––––––––––––––––––––––––––––––

DR Peak RMS Duration Track
––––––––––––––––––––––––––––––––––––––––
DR8 -0.11 dB -12.94 dB 5:19 01-Le Secret
DR8 -0.11 dB -11.57 dB 5:00 02-Danse
DR9 -0.11 dB -13.81 dB 4:59 03-Amourexique
DR6 -0.11 dB -9.32 dB 4:15 04-Un Ange Est Tombé
DR6 0.00 dB -10.44 dB 4:38 05-Je T'Appelle
DR10 -0.11 dB -15.10 dB 3:37 06-Mirage
DR9 -0.11 dB -13.84 dB 4:55 07-Que j'Etais Belle
DR6 -0.11 dB -9.71 dB 4:28 08-La Vie Est Là
DR10 -0.11 dB -15.66 dB 3:53 09-Je Rêve D'Une Etoile
DR9 -0.11 dB -12.84 dB 6:32 10-Kalpataru
DR9 -0.11 dB -12.43 dB 3:30 11-Deux "Ils" Deux "Elles"
DR9 -0.11 dB -14.93 dB 4:01 12-Ce Qu'Il Reste…
DR6 -0.11 dB -10.48 dB 4:35 13-P… De Grand Amour
DR8 -0.11 dB -11.65 dB 4:51 14-Il Est Lune
DR10 -0.11 dB -13.54 dB 4:14 15-Mon Désir
DR8 -0.11 dB -11.93 dB 5:00 16-L'Enfant Du Gwenved
DR7 -0.11 dB -12.02 dB 5:25 17-I Am A-WA
––––––––––––––––––––––––––––––––––––––––

Number of tracks: 17
Official DR value: DR8

Samplerate: 44100 Hz
Channels: 2
Bits per sample: 24
Bitrate: 1432 kbps
Codec: FLAC
================================================================================


Thanks to the Original customer!