Herbie Hancock - Gershwin's World (1998) [Reissue 2004] MCH PS3 ISO + Hi-Res FLAC

Posted By: HDAtall
Herbie Hancock - Gershwin's World (1998) [Reissue 2004] MCH PS3 ISO + Hi-Res FLAC

Herbie Hancock - Gershwin's World (1998) [Reissue 2004]
PS3 Rip | SACD ISO | DST64 2.0 & 5.1 > 1-bit/2.8224 MHz | 67:23 minutes | Scans included | 4,49 GB
or FLAC 2.0 Stereo (converted with foobar2000 to tracks) 24bit/96 kHz | Scans included | 1,53 GB
Features Stereo and Multichannel Surround Sound

Gershwin's World is the 42nd album by Herbie Hancock. This album featured the songs of George and Ira Gershwin. It features several prominent musicians including Joni Mitchell, Chick Corea, Stevie Wonder, Wayne Shorter, and the Orpheus Chamber Orchestra.

Gershwin's World is a tour de force for Herbie Hancock, transcending genre and label, and ranking among the finest recordings of his lengthy career. Released to coincide with the 100th anniversary of George Gershwin's birth, this disc features jazzman Hancock with a classy collection of special guests. The most surprising of Hancock's guest stars is Joni Mitchell, who delivers a gorgeously sensual vocal on "The Man I Love," then provides an airy, worldly take on "Summertime." On these two tracks, she shows she has come a long way from her folksinger beginnings to become a first-class jazz singer in her own right. Stevie Wonder's unmistakable harmonica complements Mitchell's singing on "Summertime" and shares lead instrument space with his own voice on the W.C. Handy classic "St. Louis Blues." Jazzman extraordinaire Wayne Shorter smokes a solo spot on Duke Ellington's "Cotton Tail" and carves out some space for his soprano saxophone in the midst of "Summertime." A number of the young lions of jazz are featured on various cuts, and Herbie's old pal Chick Corea joins the leader for a piano duet of James P. Johnson's "Blueberry Rhyme." Gershwin's wonderful, extended "Lullaby" finds Hancock teamed with the Orpheus Chamber Orchestra, as does an attractive arrangement of a "Concerto for Piano and Orchestra" by Maurice Ravel, whose jazz influence can be heard on the piece. In addition, one of the most beautiful tracks on the album places star soprano Kathleen Battle's voice at the forefront of Gershwin's own "Prelude in C# Minor." Yet with all the fine performances by his guests, Gershwin's World remains Hancock's show, and he plays magnificently throughout. From beautiful to funky, percussive to melodic, improvisational to tightly arranged, Hancock and cohorts take a wondrous journey through the music and world of Gershwin.

Tracklist:

01. Overture (Fascinating Rhythm)
02. It Ain't Necessarily So
03. The Man I Love
04. Here Come De Honey Man
05. St. Louis Blues
06. Gershwin: Lullaby
07. Blueberry Rhyme
08. It Ain't Necessarily So (Interlude)
09. Cotton Tail
10. Summertime
11. My Man's Gone Now
12. Gershwin: Prelude in C# Minor
13. Ravel: Concerto For Piano And Orchestra in G, 2nd Mvt.
14. Embraceable You

Arranged by Herbie Hancock and Robert Sadin.
Recorded at Right Track Recording, Sony Music Studios, The Hit Factory, Masters at Work Studios, RPM Sound Studios in New York, March and April, 1998; Ocean Way Recording and O'Henry Sound Studios in Los Angeles, June, 1998.
SACD Mastered by Doug Sax for Mastering Lab, Hollywood, CA.
Surround Mix by Al Schmitt at Capitol Studios Hollywood, CA.

foobar2000 1.5.2 / Dynamic Range Meter 1.1.1

––––––––––––––––––––––––––––––––––––––––
Analyzed: Herbie Hancock / Gershwin's World
––––––––––––––––––––––––––––––––––––––––

DR Peak RMS Duration Track
––––––––––––––––––––––––––––––––––––––––
DR14 -5.97 dB -25.63 dB 0:53 01-Overture (Fascinating Rhythm)
DR14 -3.38 dB -24.31 dB 4:45 02-It Ain't Necessarily So
DR15 -3.29 dB -27.11 dB 5:56 03-The Man I Love
DR13 -7.71 dB -25.60 dB 3:56 04-Here Come De Honey Man
DR17 -3.64 dB -24.47 dB 5:49 05-St. Louis Blues
DR14 -8.63 dB -29.18 dB 11:02 06-Gershwin: Lullaby
DR13 -8.03 dB -26.25 dB 3:29 07-Blueberry Rhyme
DR14 -6.32 dB -26.63 dB 1:21 08-It Ain't Necessarily So (Interlude)
DR13 -4.41 dB -23.81 dB 4:42 09-Cotton Tail
DR13 -7.34 dB -26.47 dB 4:39 10-Summertime
DR13 -8.20 dB -27.73 dB 2:00 11-My Man's Gone Now
DR15 -4.31 dB -25.88 dB 4:42 12-Gershwin: Prelude in C# Minor
DR13 -8.45 dB -28.75 dB 9:09 13-Ravel: Concerto For Piano And Orchestra in G, 2nd Mvt.
DR13 -8.48 dB -28.55 dB 4:39 14-Embraceable You
––––––––––––––––––––––––––––––––––––––––

Number of tracks: 14
Official DR value: DR14

Samplerate: 2822400 Hz / PCM Samplerate: 176400 Hz
Channels: 6
Bits per sample: 1
Bitrate: 16934 kbps
Codec: DST64
================================================================================

––––––––––––––––––––––––––––––––––––––––
Analyzed: Herbie Hancock / Gershwin's World
––––––––––––––––––––––––––––––––––––––––

DR Peak RMS Duration Track
––––––––––––––––––––––––––––––––––––––––
DR12 -6.10 dB -19.99 dB 0:56 01-Overture (Fascinating Rhythm)
DR11 -6.27 dB -20.83 dB 4:47 02-It Ain't Necessarily So
DR11 -6.32 dB -20.42 dB 5:57 03-The Man I Love
DR10 -6.82 dB -20.57 dB 3:59 04-Here Come De Honey Man
DR10 -5.96 dB -18.94 dB 5:51 05-St. Louis Blues
DR15 -6.96 dB -26.82 dB 11:03 06-Gershwin: Lullaby
DR13 -6.29 dB -22.37 dB 3:31 07-Blueberry Rhyme
DR15 -11.80 dB -29.59 dB 1:25 08-It Ain't Necessarily So (Interlude)
DR11 -6.22 dB -19.08 dB 4:44 09-Cotton Tail
DR13 -7.31 dB -23.31 dB 4:38 10-Summertime
DR12 -7.49 dB -23.84 dB 1:56 11-My Man's Gone Now
DR11 -6.44 dB -21.79 dB 4:46 12-Gershwin: Prelude in C# Minor
DR13 -6.76 dB -23.90 dB 9:12 13-Ravel: Concerto For Piano And Orchestra in G, 2nd Mvt.
DR14 -7.09 dB -26.82 dB 4:39 14-Embraceable You
––––––––––––––––––––––––––––––––––––––––

Number of tracks: 14
Official DR value: DR12

Samplerate: 2822400 Hz / PCM Samplerate: 176400 Hz
Channels: 2
Bits per sample: 1
Bitrate: 5645 kbps
Codec: DST64


Thanks to ManWhoCan!
Uncompressed SACD ISO size > 4,22 GB
>