Dave Matthews And Tim Reynolds - Live At Radio City (2007) [BDRip, FLAC 24 bit/48 kHz]

Posted By: HDV
Dave Matthews And Tim Reynolds - Live At Radio City (2007) [BDRip, FLAC 24 bit/48 kHz]

Dave Matthews And Tim Reynolds - Live At Radio City (2007)
FLAC (tracks) 24 bit/48 kHz | Time - 156:09 minutes | 1,97 GB
Blu-Ray rip | Source: LPCM Stereo 24/48 Track | Front cover

In April 2007, Dave Matthews and Tim Reynolds embarked on a 3-city theatre tour, culminating with a performance in the intimate confines of Radio City Music Hall in New York City. Due to the smaller sized venues and extremely limited number of dates, tickets were practically impossible to get, making this set all the more desirable to the huge Dave Matthews Band fanbase. Live At Radio City marks the first time in almost ten years that Dave and Tim have released an album. Live At Radio City features over 2 1/2 hours of music, capturing all 26 songs of Dave and Tim's performance. The performance includes numerous songs that have never been recorded by the two, including Crush, Grace Is Gone, Don't Drink The Water, Gravedigger and many more.

Tracklist:

01 - Bartender
02 - When The World Ends
03 - Stay or Leave
04 - Save Me
05 - Crush
06 - So Damn Lucky
07 - Gravedigger
08 - The Maker
09 - Old Dirt Hill (Bring That Beat Back)
10 - Eh Hee
11 - Betrayal
12 - Out Of My Hands
13 - Still Water
14 - Don't Drink The Water
15 - Oh
16 - Cornbread
17 - Crash Into Me
18 - Down By The River
19 - You Are My Sanity
20 - Sister
21 - Lie In Our Graves
22 - Some Devil
23 - Grace Is Gone
24 - Dancing Nannies
25 - #41
26 - Two Step

Analyzed: Dave Matthews and Tim Reynolds / Live at Radio City
––––––––––––––––––––––––––––––––––––––––

DR Peak RMS Duration Track
––––––––––––––––––––––––––––––––––––––––
DR5 -0.01 dB -8.28 dB 8:58 01-Bartender
DR6 -0.01 dB -7.85 dB 4:11 02-When The World Ends
DR7 -0.01 dB -8.94 dB 4:18 03-Stay or Leave
DR6 -0.01 dB -8.51 dB 5:13 04-Save Me
DR6 -0.01 dB -8.50 dB 9:31 05-Crush
DR6 -0.01 dB -8.35 dB 5:18 06-So Damn Lucky
DR7 -0.01 dB -9.03 dB 4:07 07-Gravedigger
DR8 -0.09 dB -11.24 dB 6:25 08-The Maker
DR7 -0.01 dB -10.08 dB 6:29 09-Old Dirt Hill (Bring That Beat Back)
DR6 -0.01 dB -7.45 dB 4:37 10-Eh Hee
DR9 -0.08 dB -11.19 dB 5:58 11-Betrayal
DR11 -0.11 dB -14.09 dB 5:33 12-Out Of My Hands
DR8 -0.09 dB -9.97 dB 2:25 13-Still Water
DR6 -0.01 dB -8.13 dB 7:42 14-Don't Drink The Water
DR10 -0.09 dB -13.77 dB 3:57 15-Oh
DR7 -0.07 dB -9.69 dB 6:05 16-Cornbread
DR6 -0.01 dB -8.10 dB 5:48 17-Crash Into Me
DR6 -0.01 dB -8.82 dB 6:19 18-Down By The River
DR10 -0.07 dB -13.03 dB 5:27 19-You Are My Sanity
DR15 -0.07 dB -18.31 dB 5:26 20-Sister
DR6 -0.01 dB -7.35 dB 9:02 21-Lie In Our Graves
DR8 -0.01 dB -10.15 dB 6:14 22-Some Devil
DR7 -0.02 dB -9.64 dB 4:11 23-Grace Is Gone
DR5 -0.01 dB -7.65 dB 9:33 24-Dancing Nannies
DR6 -0.01 dB -7.31 dB 6:40 25-#41
DR6 -0.01 dB -7.71 dB 6:42 26-Two Step
––––––––––––––––––––––––––––––––––––––––

Number of tracks: 26
Official DR value: DR7

Samplerate: 48000 Hz
Channels: 2
Bits per sample: 24
Bitrate: 1811 kbps
Codec: FLAC
================================================================================


All files were fully tagged.