Tags
Language
Tags

Chick Corea and Gary Burton - Hot House (2012) [Official Digital Download 24bit/96kHz]

Posted By: HDV
Chick Corea and Gary Burton - Hot House (2012) [Official Digital Download 24bit/96kHz]

Chick Corea & Gary Burton - Hot House (2012)
FLAC (tracks) 24 bit/96 kHz | Time - 75:04 minutes | 1,29 GB
Studio Master, Official Digital Download | Artwork: Digital booklet

Pianist Chick Corea and vibraphonist Gary Burton have been a powerhouse team for more than four decades, performing exhilarating sets across the world and releasing seven acclaimed recordings. The influential pair celebrates forty years of great jazz with the release of Hot House, a collection of ten songs that draws from the works of some of their favorite composers from the 1940s through the 1960s. The result is a refreshing account of under-appreciated classics. Hot House includes the lighthearted “Can’t We Be Friends”, a darker “Eleanor Rigby” and the gorgeous Evans’ track “Time Remembered”.

Hot House is the seventh recording by the duo of pianist Chick Corea and vibraphonist Gary Burton. This time out, Corea and Burton picked pieces by some of their favorite composers – mostly from the jazz world, of course – yet chose compositions that were less than obvious. A shining example is "Can't We Be Friends," an obscure standard closely associated with Art Tatum. Though it's a pop song, Tatum completely reinvented it in his image. In Corea's arrangement, the duo walks a balanced line between classic American pop, jazz modernism, and the legendary pianist's swinging take on stride. The reading of "Eleanor Rigby" commences with an elliptical piano intro; it's clean, graceful, and gives way to Burton's statement of the melody before the pair moves into a more uptempo engagement with the tune's harmonics. Tadd Dameron's "Hot House" is a conscious nod to the flurried exchanges between Charlie Parker and Dizzy Gillespie, and is nearly pointillistic in its focus; there are gorgeous arpeggios and striking solos – particularly Burton's. The inclusion of Thelonious Monk's "Light Blue" is wonderful. One of the most under-performed of all Monk's compositions, its solemn yet tender emotive tone and brief minor lyric statements are extrapolated upon by Corea to add another melodic statement onto the second chorus. Other standouts include a gracious version of Bill Evans' "Time Remembered," a haunting rendition of Antonio Carlos Jobim's "Chega de Saudade," and a lengthy, massively improvisatory version of Kurt Weill's "My Ship." The set closer, "Mozart Goes Dancing," is the only original included on the set. Written by Corea, it features the pair in the company of the Harlem String Quartet and reflects Corea's dexterity as a composer who uses rhythmic and lyric interplay to extend the reach of classical harmony toward jazz's realm of immediacy. It also contains a healthy dose of his playful sense of humor. The duo's approach in wedding mainstream and modern jazz (often inside the same tune) will appeal mostly to fans of the duo's previous six recordings. That said, Hot House is a further example of the nearly symbiotic language they've developed over the past 40 years, and is a stellar example of masterful dialogic articulation and execution. This is collaboration in its purest and and most elegant form.

Tracklist:

01 - Can't We Be Friends
02 - Eleanor Rigby
03 - Chega de Saudade
04 - Time Remembered
05 - Hot House
06 - Strange Meadow Lark
07 - Light Blue
08 - Once I Loved
09 - My Ship
10 - Mozart Goes Dancing

Produced by Chick Corea and Gary Burton.
Recorded at Avatar Studios & Mad Hatter Studio East.

Musicians:
Chick Corea - piano
Gary Burton - vibraphone
Ilmar Gavilán - violin (10)
Melissa White - violin (10)
Juan Miguel Hernandez - viola (10)
Paul Wiancko - cello (10)

Analyzed: Chick Corea & Gary Burton / Hot House
––––––––––––––––––––––––––––––––––––––––

DR Peak RMS Duration Track
––––––––––––––––––––––––––––––––––––––––
DR9 -0.19 dB -12.21 dB 7:26 01-Can't We Be Friends
DR10 -0.16 dB -12.91 dB 7:02 02-Eleanor Rigby
DR10 -0.46 dB -13.50 dB 10:47 03-Chega de Saudade
DR10 -0.47 dB -13.70 dB 6:14 04-Time Remembered
DR10 -0.30 dB -12.37 dB 3:55 05-Hot House
DR10 -0.50 dB -14.24 dB 7:06 06-Strange Meadow Lark
DR10 -0.36 dB -12.65 dB 6:04 07-Light Blue
DR10 -0.10 dB -13.47 dB 7:23 08-Once I Loved
DR11 -0.41 dB -14.18 dB 11:54 09-My Ship
DR11 0.00 dB -13.94 dB 7:14 10-Mozart Goes Dancing
––––––––––––––––––––––––––––––––––––––––

Number of tracks: 10
Official DR value: DR10

Samplerate: 96000 Hz
Channels: 2
Bits per sample: 24
Bitrate: 2636 kbps
Codec: FLAC
================================================================================


Thanks to the Original customer!