Tags
Language
Tags
October 2022
Su Mo Tu We Th Fr Sa
25 26 27 28 29 30 1
2 3 4 5 6 7 8
9 10 11 12 13 14 15
16 17 18 19 20 21 22
23 24 25 26 27 28 29
30 31 1 2 3 4 5

Ray Charles - The Great Ray Charles (Édition Studio Masters) (1957/2012) [Official Digital Download 24/96]

Posted By: pyatak
Ray Charles - The Great Ray Charles (Édition Studio Masters) (1957/2012) [Official Digital Download 24/96]

Ray Charles - The Great Ray Charles (Édition Studio Masters) (1957/2012) [Official Digital Download 24/96]
FLAC (tracks) 24-bit/96 kHz | Front Cover | Time - 37:29 minutes | 786 MB
Soul, Jazz | Label: Rhino Atlantic, Official Digital Download

The Great Ray Charles is Ray Charles' second studio album for Atlantic Records, released in 1957. It is an instrumental jazz album. Later CD re-issues often include as a bonus, six of eight tracks from The Genius After Hours. The original cover was by Marvin Israel.

TRACKLIST

1. Ray Charles - The Ray
2. Ray Charles - My Melancholy Baby
3. Ray Charles - Black Coffee
4. Ray Charles - There's No You
5. Ray Charles - Doodlin
6. Ray Charles - Sweet Sixteen Bars
7. Ray Charles - I Surrender Dear
8. Ray Charles - Undecided

foobar2000 1.6.2 / Dynamic Range Meter 1.1.1
log date: 2021-05-26 07:16:19

––––––––––––––––––––––––––––––––––––––––
Analyzed: Ray Charles / The Great Ray Charles (Édition Studio Masters)
––––––––––––––––––––––––––––––––––––––––

DR Peak RMS Duration Track
––––––––––––––––––––––––––––––––––––––––
DR15 -3.67 dB -22.34 dB 4:01 01-The Ray
DR14 -0.10 dB -17.64 dB 4:25 02-My Melancholy Baby
DR15 -4.60 dB -24.22 dB 5:30 03-Black Coffee
DR14 -3.98 dB -22.24 dB 4:48 04-There's No You
DR18 -1.11 dB -24.07 dB 5:57 05-Doodlin
DR16 -2.87 dB -23.22 dB 4:08 06-Sweet Sixteen Bars
DR15 -3.61 dB -22.40 dB 5:08 07-I Surrender Dear
DR14 -0.46 dB -18.52 dB 3:37 08-Undecided
––––––––––––––––––––––––––––––––––––––––

Number of tracks: 8
Official DR value: DR15

Samplerate: 96000 Hz
Channels: 2
Bits per sample: 24
Bitrate: 3056 kbps
Codec: FLAC
================================================================================



Thanks to the Original customer.