Marvin Gaye - Here, My Dear (1978/2021) [Official Digital Download 24/192]

Posted By: pyatak
Marvin Gaye - Here, My Dear (1978/2021) [Official Digital Download 24/192]

Marvin Gaye - Here, My Dear (1978/2021) [Official Digital Download 24/192]
FLAC (tracks) 24-bit/192 kHz | Front Cover | Time - 73:38 minutes | 3,25 GB
Soul | Label: UNI - MOTOWN, Official Digital Download

"What was supposed to be a kiss-off alimony payment to his ex-wife shape-shifted into a towering ode to divorce. The maligned and complicated double-LP remains a candid soul confessional."
- Pitchfork

Here, My Dear is the fifteenth studio album by Marvin Gaye, originally released as a double album on December 15, 1978, on Motown-subsidiary label Tamla Records. Recording sessions for the album took place between 1977 and 1978 at Gaye's personal studios, Marvin Gaye Studios, in Los Angeles, California. The album was notable for its subject matter focusing largely on Gaye's acrimonious divorce from his first wife, Anna Gordy Gaye.

TRACKLIST

1. Marvin Gaye - Here, My Dear (Album Version)
2. Marvin Gaye - I Met A Little Girl (Album Version)
3. Marvin Gaye - When Did You Stop Loving Me, When Did I Stop Loving You
4. Marvin Gaye - Anger
5. Marvin Gaye - Is That Enough (Album Version)
6. Marvin Gaye - Everybody Needs Love (Album Version)
7. Marvin Gaye - Time To Get It Together (Album Version)
8. Marvin Gaye - Sparrow (Album Version)
9. Marvin Gaye - Anna's Song (Album Version)
10. Marvin Gaye - When Did You Stop Loving Me, When Did I Stop Loving You (Instrumental)
11. Marvin Gaye - A Funky Space Reincarnation (Album Version)
12. Marvin Gaye - You Can Leave, But It's Going To Cost You (Album Version)
13. Marvin Gaye - Falling In Love Again (Album Version)
14. Marvin Gaye - When Did You Stop Loving Me, When Did I Stop Loving You (Reprise)

foobar2000 1.6.2 / Dynamic Range Meter 1.1.1
log date: 2021-04-23 05:41:49

––––––––––––––––––––––––––––––––––––––––
Analyzed: Marvin Gaye / Here, My Dear
––––––––––––––––––––––––––––––––––––––––

DR Peak RMS Duration Track
––––––––––––––––––––––––––––––––––––––––
DR9 -0.29 dB -10.26 dB 2:55 01-Here, My Dear (Album Version)
DR9 -0.29 dB -10.60 dB 5:10 02-I Met A Little Girl (Album Version)
DR10 -0.29 dB -11.39 dB 6:25 03-When Did You Stop Loving Me, When Did I Stop Loving You
DR10 -0.29 dB -11.15 dB 4:07 04-Anger
DR10 -0.29 dB -11.58 dB 7:52 05-Is That Enough (Album Version)
DR9 -0.29 dB -11.16 dB 5:51 06-Everybody Needs Love (Album Version)
DR9 -0.29 dB -10.26 dB 3:55 07-Time To Get It Together (Album Version)
DR9 -0.29 dB -11.01 dB 6:13 08-Sparrow (Album Version)
DR9 -0.29 dB -11.32 dB 5:56 09-Anna's Song (Album Version)
DR9 -0.29 dB -11.16 dB 6:05 10-When Did You Stop Loving Me, When Did I Stop Loving You (Instrumental)
DR11 -0.29 dB -12.33 dB 8:21 11-A Funky Space Reincarnation (Album Version)
DR9 -0.29 dB -9.91 dB 5:32 12-You Can Leave, But It's Going To Cost You (Album Version)
DR9 -0.29 dB -10.50 dB 4:39 13-Falling In Love Again (Album Version)
DR9 -0.29 dB -11.22 dB 0:44 14-When Did You Stop Loving Me, When Did I Stop Loving You (Reprise)
––––––––––––––––––––––––––––––––––––––––

Number of tracks: 14
Official DR value: DR9

Samplerate: 192000 Hz
Channels: 2
Bits per sample: 24
Bitrate: 6227 kbps
Codec: FLAC
================================================================================



Thanks to the Original customer.