Heart - Bad Animals (1987/2021) [Official Digital Download 24/96]

Posted By: pyatak
Heart - Bad Animals (1987/2021) [Official Digital Download 24/96]

Heart - Bad Animals (1987/2021) [Official Digital Download 24/96]
FLAC (tracks) 24-bit/96 kHz | Front Cover | Time - 40:30 minutes | 890 MB
Rock | Label: Capitol Records , Official Digital Download

Bad Animals is the ninth studio album by American rock band Heart, released on June 6, 1987, by Capitol Records. The album continues the mainstream hard rock style from the band's 1985 self-titled release, all while enjoying similar success. It peaked at number two on the US Billboard 200 in August 1987, and was certified triple platinum by the Recording Industry Association of America (RIAA) on June 4, 1992. Internationally, Bad Animals charted within the top five in Canada, Finland, Norway, Sweden, and Switzerland.

The album spawned the US number-one single "Alone", while "Who Will You Run To" reached number seven, "There's the Girl" reached number 12, and "I Want You So Bad" reached number 49. Bad Animals received a nomination for "Best Rock Performance by a Duo or Group with Vocal" at the 30th Annual Grammy Awards in 1988.

The album features a few cover songs: "Alone" was originally recorded by the duo i-Ten on their 1983 album Taking a Cold Look, while "Wait for an Answer" was originally recorded by Dalbello on her 1984 album Whomanfoursays.

TRACKLIST

1. Heart - Who Will You Run To
2. Heart - Alone
3. Heart - There's The Girl
4. Heart - I Want You So Bad
5. Heart - Wait For An Answer
6. Heart - Bad Animals
7. Heart - You Ain't So Tough
8. Heart - Strangers Of The Heart
9. Heart - Easy Target
10. Heart - RSVP

foobar2000 1.6.2 / Dynamic Range Meter 1.1.1
log date: 2021-03-26 16:18:01

––––––––––––––––––––––––––––––––––––––––
Analyzed: Heart / Bad Animals
––––––––––––––––––––––––––––––––––––––––

DR Peak RMS Duration Track
––––––––––––––––––––––––––––––––––––––––
DR13 -0.33 dB -15.01 dB 4:04 01-Who Will You Run To
DR12 -0.30 dB -15.10 dB 3:38 02-Alone
DR13 -0.40 dB -14.71 dB 3:49 03-There's The Girl
DR12 -0.33 dB -14.57 dB 4:19 04-I Want You So Bad
DR12 -0.32 dB -14.84 dB 4:29 05-Wait For An Answer
DR13 -0.32 dB -15.28 dB 4:52 06-Bad Animals
DR13 -0.31 dB -15.20 dB 4:04 07-You Ain't So Tough
DR12 -0.31 dB -14.59 dB 3:40 08-Strangers Of The Heart
DR13 -0.32 dB -15.00 dB 3:57 09-Easy Target
DR12 -0.32 dB -15.29 dB 3:38 10-RSVP
––––––––––––––––––––––––––––––––––––––––

Number of tracks: 10
Official DR value: DR13

Samplerate: 96000 Hz
Channels: 2
Bits per sample: 24
Bitrate: 3056 kbps
Codec: FLAC
================================================================================



Thanks to the Original customer.