Ella Fitzgerald and Louis Armstrong - Porgy And Bess (1956/2020) [Official Digital Download 24/96]

Posted By: pyatak
Ella Fitzgerald and Louis Armstrong - Porgy And Bess (1956/2020) [Official Digital Download 24/96]

Ella Fitzgerald and Louis Armstrong - Porgy And Bess (1956/2020) [Official Digital Download 24/96]
FLAC (tracks) 24-bit/96 kHz | Front Cover | Time - 01:06:06 minutes | 1,19 GB
Vocal Jazz | Label: RevOla, Official Digital Download

Porgy and Bess is a studio album by jazz vocalist and trumpeter Louis Armstrong and singer Ella Fitzgerald, released on Verve Records in 1959. The third and final of the pair's albums for the label, it is a suite of selections from the George Gershwin opera Porgy and Bess. Orchestral arrangements are by Russell Garcia, who had previously arranged the 1956 jazz vocal recording The Complete Porgy and Bess.

TRACKLIST

1. Ella Fitzgerald - Overture (Remastered)
2. Ella Fitzgerald - Summertime (Remastered)
3. Ella Fitzgerald - I Wants to Stay Here (Remastered)
4. Ella Fitzgerald - My Man's Gone Now (Remastered)
5. Ella Fitzgerald - I Got Plenty o' Nuttin (Remastered)
6. Ella Fitzgerald - The Buzzard Song (Remastered)
7. Ella Fitzgerald - Bess, You Is My Woman Now (Remastered)
8. Ella Fitzgerald - It Ain't Necessarily So (Remastered)
9. Ella Fitzgerald - What You Want Wid Bess? (Remastered)
10. Ella Fitzgerald - A Woman Is A Sometime Thing (Remastered)
11. Ella Fitzgerald - Oh, Doctor Jesus (Remastered)
12. Ella Fitzgerald - Medley- Here Come de Honey Man-Crab Man-Oh, Dey's So Fresh and Fine (Remastered)
13. Ella Fitzgerald - There's a Boat Dat's Leavin' Soon for New York (Remastered)
14. Ella Fitzgerald - Oh, Bess, Oh Where's My Bess? (Remastered)
15. Ella Fitzgerald - Oh, Lawd, I'm On My Way (Remastered)

foobar2000 1.6.2 / Dynamic Range Meter 1.1.1
log date: 2020-12-19 13:05:00

––––––––––––––––––––––––––––––––––––––––
Analyzed: Ella Fitzgerald / Porgy And Bess
––––––––––––––––––––––––––––––––––––––––

DR Peak RMS Duration Track
––––––––––––––––––––––––––––––––––––––––
DR12 -1.64 dB -19.68 dB 10:52 01-Overture (Remastered)
DR14 -5.47 dB -23.40 dB 4:58 02-Summertime (Remastered)
DR12 -2.86 dB -20.38 dB 4:39 03-I Wants to Stay Here (Remastered)
DR14 -1.04 dB -20.95 dB 4:02 04-My Man's Gone Now (Remastered)
DR15 -2.26 dB -21.04 dB 3:53 05-I Got Plenty o' Nuttin (Remastered)
DR14 -1.96 dB -20.31 dB 2:59 06-The Buzzard Song (Remastered)
DR12 -4.39 dB -21.20 dB 5:29 07-Bess, You Is My Woman Now (Remastered)
DR14 -2.71 dB -21.68 dB 6:35 08-It Ain't Necessarily So (Remastered)
DR12 -1.26 dB -19.28 dB 2:00 09-What You Want Wid Bess? (Remastered)
DR15 -1.57 dB -19.25 dB 4:47 10-A Woman Is A Sometime Thing (Remastered)
DR13 -4.87 dB -22.69 dB 2:00 11-Oh, Doctor Jesus (Remastered)
DR12 -4.10 dB -21.06 dB 3:30 12-Medley- Here Come de Honey Man-Crab Man-Oh, Dey's So Fresh and Fine (Remastered)
DR13 -1.29 dB -19.06 dB 4:54 13-There's a Boat Dat's Leavin' Soon for New York (Remastered)
DR13 -1.74 dB -19.86 dB 2:36 14-Oh, Bess, Oh Where's My Bess? (Remastered)
DR13 -3.01 dB -18.74 dB 2:59 15-Oh, Lawd, I'm On My Way (Remastered)
––––––––––––––––––––––––––––––––––––––––

Number of tracks: 15
Official DR value: DR13

Samplerate: 96000 Hz
Channels: 2
Bits per sample: 24
Bitrate: 2545 kbps
Codec: FLAC
================================================================================



Thanks to the Original customer.